  0
SECTION
  2
HEADER
  9
$ACADVER
  1
AC1015
  9
$ACADMAINTVER
 70
     6
  9
$DWGCODEPAGE
  3
ANSI_1252
  9
$INSBASE
 10
0.0
 20
0.0
 30
0.0
  9
$EXTMIN
 10
0.0
 20
0.0
 30
0.0
  9
$EXTMAX
 10
1000.0
 20
1000.0
 30
0.0
  9
$LIMMIN
 10
0.0
 20
0.0
  9
$LIMMAX
 10
1000.0
 20
1000.0
  9
$ORTHOMODE
 70
     0
  9
$REGENMODE
 70
     1
  9
$FILLMODE
 70
     1
  9
$QTEXTMODE
 70
     0
  9
$MIRRTEXT
 70
     1
  9
$LTSCALE
 40
1.0
  9
$ATTMODE
 70
     1
  9
$TEXTSIZE
 40
3.5
  9
$TRACEWID
 40
1.0
  9
$TEXTSTYLE
  7
Standard
  9
$CLAYER
  8
0
  9
$CELTYPE
  6
ByLayer
  9
$CECOLOR
 62
   256
  9
$CELTSCALE
 40
1.0
  9
$DISPSILH
 70
     0
  9
$DIMSCALE
 40
1.0
  9
$DIMASZ
 40
3.302
  9
$DIMEXO
 40
1.0
  9
$DIMDLI
 40
3.75
  9
$DIMRND
 40
0.0
  9
$DIMDLE
 40
0.0
  9
$DIMEXE
 40
1.0
  9
$DIMTP
 40
0.0
  9
$DIMTM
 40
0.0
  9
$DIMTXT
 40
3.5
  9
$DIMCEN
 40
2.5
  9
$DIMTSZ
 40
0.0
  9
$DIMTOL
 70
     0
  9
$DIMLIM
 70
     0
  9
$DIMTIH
 70
     1
  9
$DIMTOH
 70
     1
  9
$DIMSE1
 70
     0
  9
$DIMSE2
 70
     0
  9
$DIMTAD
 70
     1
  9
$DIMZIN
 70
     0
  9
$DIMBLK
  1

  9
$DIMASO
 70
     1
  9
$DIMSHO
 70
     1
  9
$DIMPOST
  1

  9
$DIMAPOST
  1

  9
$DIMALT
 70
     0
  9
$DIMALTD
 70
     3
  9
$DIMALTF
 40
0.0393700787
  9
$DIMLFAC
 40
2.0
  9
$DIMTOFL
 70
     1
  9
$DIMTVP
 40
0.0
  9
$DIMTIX
 70
     0
  9
$DIMSOXD
 70
     0
  9
$DIMSAH
 70
     0
  9
$DIMBLK1
  1

  9
$DIMBLK2
  1

  9
$DIMSTYLE
  2
ISO-25
  9
$DIMCLRD
 70
     0
  9
$DIMCLRE
 70
     0
  9
$DIMCLRT
 70
     0
  9
$DIMTFAC
 40
1.0
  9
$DIMGAP
 40
1.524
  9
$DIMJUST
 70
     0
  9
$DIMSD1
 70
     0
  9
$DIMSD2
 70
     0
  9
$DIMTOLJ
 70
     0
  9
$DIMTZIN
 70
     0
  9
$DIMALTZ
 70
     0
  9
$DIMALTTZ
 70
     0
  9
$DIMUPT
 70
     0
  9
$DIMDEC
 70
     2
  9
$DIMTDEC
 70
     2
  9
$DIMALTU
 70
     2
  9
$DIMALTTD
 70
     3
  9
$DIMTXSTY
  7
Standard
  9
$DIMAUNIT
 70
     0
  9
$DIMADEC
 70
     2
  9
$DIMALTRND
 40
0.0
  9
$DIMAZIN
 70
     0
  9
$DIMDSEP
 70
    44
  9
$DIMATFIT
 70
     3
  9
$DIMFRAC
 70
     0
  9
$DIMLDRBLK
  1

  9
$DIMLUNIT
 70
     2
  9
$DIMLWD
 70
    -2
  9
$DIMLWE
 70
    -2
  9
$DIMTMOVE
 70
     0
  9
$LUNITS
 70
     2
  9
$LUPREC
 70
     2
  9
$SKETCHINC
 40
1.0
  9
$FILLETRAD
 40
10.0
  9
$AUNITS
 70
     0
  9
$AUPREC
 70
     2
  9
$MENU
  1
.
  9
$ELEVATION
 40
0.0
  9
$PELEVATION
 40
0.0
  9
$THICKNESS
 40
0.0
  9
$LIMCHECK
 70
     0
  9
$CHAMFERA
 40
10.0
  9
$CHAMFERB
 40
10.0
  9
$CHAMFERC
 40
20.0
  9
$CHAMFERD
 40
0.0
  9
$SKPOLY
 70
     0
  9
$TDCREATE
 40
2459478.950685787
  9
$TDUCREATE
 40
2459478.867352454
  9
$TDUPDATE
 40
2459478.95068831
  9
$TDUUPDATE
 40
2459478.867354977
  9
$TDINDWG
 40
0.0000000116
  9
$TDUSRTIMER
 40
0.0000000116
  9
$USRTIMER
 70
     1
  9
$ANGBASE
 50
0.0
  9
$ANGDIR
 70
     0
  9
$PDMODE
 70
     0
  9
$PDSIZE
 40
-1.0
  9
$PLINEWID
 40
0.0
  9
$SPLFRAME
 70
     0
  9
$SPLINETYPE
 70
     6
  9
$SPLINESEGS
 70
     8
  9
$HANDSEED
  5
F0
  9
$SURFTAB1
 70
     6
  9
$SURFTAB2
 70
     6
  9
$SURFTYPE
 70
     6
  9
$SURFU
 70
     6
  9
$SURFV
 70
     6
  9
$UCSBASE
  2

  9
$UCSNAME
  2

  9
$UCSORG
 10
0.0
 20
0.0
 30
0.0
  9
$UCSXDIR
 10
1.0
 20
0.0
 30
0.0
  9
$UCSYDIR
 10
0.0
 20
1.0
 30
0.0
  9
$UCSORTHOREF
  2

  9
$UCSORTHOVIEW
 70
     0
  9
$UCSORGTOP
 10
0.0
 20
0.0
 30
0.0
  9
$UCSORGBOTTOM
 10
0.0
 20
0.0
 30
0.0
  9
$UCSORGLEFT
 10
0.0
 20
0.0
 30
0.0
  9
$UCSORGRIGHT
 10
0.0
 20
0.0
 30
0.0
  9
$UCSORGFRONT
 10
0.0
 20
0.0
 30
0.0
  9
$UCSORGBACK
 10
0.0
 20
0.0
 30
0.0
  9
$PUCSBASE
  2

  9
$PUCSNAME
  2

  9
$PUCSORG
 10
0.0
 20
0.0
 30
0.0
  9
$PUCSXDIR
 10
1.0
 20
0.0
 30
0.0
  9
$PUCSYDIR
 10
0.0
 20
1.0
 30
0.0
  9
$PUCSORTHOREF
  2

  9
$PUCSORTHOVIEW
 70
     0
  9
$PUCSORGTOP
 10
0.0
 20
0.0
 30
0.0
  9
$PUCSORGBOTTOM
 10
0.0
 20
0.0
 30
0.0
  9
$PUCSORGLEFT
 10
0.0
 20
0.0
 30
0.0
  9
$PUCSORGRIGHT
 10
0.0
 20
0.0
 30
0.0
  9
$PUCSORGFRONT
 10
0.0
 20
0.0
 30
0.0
  9
$PUCSORGBACK
 10
0.0
 20
0.0
 30
0.0
  9
$USERI1
 70
     0
  9
$USERI2
 70
     0
  9
$USERI3
 70
     0
  9
$USERI4
 70
     0
  9
$USERI5
 70
     0
  9
$USERR1
 40
0.0
  9
$USERR2
 40
0.0
  9
$USERR3
 40
0.0
  9
$USERR4
 40
0.0
  9
$USERR5
 40
0.0
  9
$WORLDVIEW
 70
     1
  9
$SHADEDGE
 70
     3
  9
$SHADEDIF
 70
    70
  9
$TILEMODE
 70
     1
  9
$MAXACTVP
 70
    64
  9
$PINSBASE
 10
0.0
 20
0.0
 30
0.0
  9
$PLIMCHECK
 70
     0
  9
$PEXTMIN
 10
1.0000000000E+20
 20
1.0000000000E+20
 30
1.0000000000E+20
  9
$PEXTMAX
 10
-1.0000000000E+20
 20
-1.0000000000E+20
 30
-1.0000000000E+20
  9
$PLIMMIN
 10
0.0
 20
0.0
  9
$PLIMMAX
 10
420.0
 20
297.0
  9
$UNITMODE
 70
     0
  9
$VISRETAIN
 70
     1
  9
$PLINEGEN
 70
     0
  9
$PSLTSCALE
 70
     1
  9
$TREEDEPTH
 70
  3020
  9
$CMLSTYLE
  2
Standard
  9
$CMLJUST
 70
     0
  9
$CMLSCALE
 40
20.0
  9
$PROXYGRAPHICS
 70
     1
  9
$MEASUREMENT
 70
     1
  9
$CELWEIGHT
370
    -1
  9
$ENDCAPS
280
     0
  9
$JOINSTYLE
280
     0
  9
$LWDISPLAY
290
     1
  9
$INSUNITS
 70
     4
  9
$HYPERLINKBASE
  1

  9
$STYLESHEET
  1

  9
$XEDIT
290
     1
  9
$CEPSNTYPE
380
     0
  9
$PSTYLEMODE
290
     1
  9
$FINGERPRINTGUID
  2
{F704F35A-E9A2-4D81-84A4-7833A376D33D}
  9
$VERSIONGUID
  2
{FAEB1C32-E019-11D5-929B-00C0DF256EC4}
  9
$EXTNAMES
290
     1
  9
$PSVPSCALE
 40
0.0
  9
$OLESTARTUP
290
     0
  0
ENDSEC
  0
SECTION
  2
CLASSES
  0
CLASS
  1
ACDBDICTIONARYWDFLT
  2
AcDbDictionaryWithDefault
  3
ObjectDBX Classes
 90
        0
280
     0
281
     0
  0
CLASS
  1
VISUALSTYLE
  2
AcDbVisualStyle
  3
ObjectDBX Classes
 90
     4095
280
     0
281
     0
  0
CLASS
  1
MATERIAL
  2
AcDbMaterial
  3
ObjectDBX Classes
 90
     1153
280
     0
281
     0
  0
CLASS
  1
ACDBPLACEHOLDER
  2
AcDbPlaceHolder
  3
ObjectDBX Classes
 90
        0
280
     0
281
     0
  0
CLASS
  1
LAYOUT
  2
AcDbLayout
  3
ObjectDBX Classes
 90
        0
280
     0
281
     0
  0
ENDSEC
  0
SECTION
  2
TABLES
  0
TABLE
  2
VPORT
  5
8
330
0
100
AcDbSymbolTable
 70
     1
  0
VPORT
  5
29
330
8
100
AcDbSymbolTableRecord
100
AcDbViewportTableRecord
  2
*Active
 70
     0
 10
0.0
 20
0.0
 11
1.0
 21
1.0
 12
500.0
 22
500.0
 13
0.0
 23
0.0
 14
10.0
 24
10.0
 15
10.0
 25
10.0
 16
0.0
 26
0.0
 36
1.0
 17
0.0
 27
0.0
 37
0.0
 40
1000.0
 41
1.0
 42
50.0
 43
0.0
 44
0.0
 50
0.0
 51
0.0
 71
     0
 72
  2000
 73
     1
 74
     3
 75
     0
 76
     0
 77
     0
 78
     0
281
     0
 65
     1
110
0.0
120
0.0
130
0.0
111
1.0
121
0.0
131
0.0
112
0.0
122
1.0
132
0.0
 79
     0
146
0.0
  0
ENDTAB
  0
TABLE
  2
LTYPE
  5
5
330
0
100
AcDbSymbolTable
 70
     6
  0
LTYPE
  5
14
330
5
100
AcDbSymbolTableRecord
100
AcDbLinetypeTableRecord
  2
ByBlock
 70
     0
  3

 72
    65
 73
     0
 40
0.0
  0
LTYPE
  5
15
330
5
100
AcDbSymbolTableRecord
100
AcDbLinetypeTableRecord
  2
ByLayer
 70
     0
  3

 72
    65
 73
     0
 40
0.0
  0
LTYPE
  5
16
330
5
100
AcDbSymbolTableRecord
100
AcDbLinetypeTableRecord
  2
Continuous
 70
     0
  3
Solid line
 72
    65
 73
     0
 40
0.0
  0
LTYPE
  5
3F
330
5
100
AcDbSymbolTableRecord
100
AcDbLinetypeTableRecord
  2
HIDDEN
 70
     0
  3
Hidden __ __ __ __ __ __ __ __ __ __ __ __ __ __
 72
    65
 73
     2
 40
1.905
 49
1.27
 74
     0
 49
-0.635
 74
     0
  0
LTYPE
  5
40
330
5
100
AcDbSymbolTableRecord
100
AcDbLinetypeTableRecord
  2
PHANTOM
 70
     0
  3
Phantom ______  __  __  ______  __  __  ______
 72
    65
 73
     6
 40
12.7
 49
6.35
 74
     0
 49
-1.27
 74
     0
 49
1.27
 74
     0
 49
-1.27
 74
     0
 49
1.27
 74
     0
 49
-1.27
 74
     0
  0
LTYPE
  5
41
330
5
100
AcDbSymbolTableRecord
100
AcDbLinetypeTableRecord
  2
CENTER
 70
     0
  3
Center ____ _ ____ _ ____ _ ____ _ ____ _ ____
 72
    65
 73
     4
 40
10.16
 49
6.35
 74
     0
 49
-1.27
 74
     0
 49
1.27
 74
     0
 49
-1.27
 74
     0
  0
LTYPE
  5
42
330
5
100
AcDbSymbolTableRecord
100
AcDbLinetypeTableRecord
  2
CENTERX2
 70
     0
  3
Center (2x) ________  __  ________  __  _____
 72
    65
 73
     4
 40
20.32
 49
12.7
 74
     0
 49
-2.54
 74
     0
 49
2.54
 74
     0
 49
-2.54
 74
     0
  0
LTYPE
  5
43
330
5
100
AcDbSymbolTableRecord
100
AcDbLinetypeTableRecord
  2
DOT2
 70
     0
  3
Dot (.5x) ........................................
 72
    65
 73
     2
 40
0.635
 49
0.0
 74
     0
 49
-0.635
 74
     0
  0
ENDTAB
  0
TABLE
  2
LAYER
  5
2
330
0
100
AcDbSymbolTable
 70
     1
  0
LAYER
  5
10
330
2
100
AcDbSymbolTableRecord
100
AcDbLayerTableRecord
  2
0
 70
     0
 62
     7
  6
Continuous
370
    -3
390
F
  0
ENDTAB
  0
TABLE
  2
STYLE
  5
3
330
0
100
AcDbSymbolTable
 70
     3
  0
STYLE
  5
11
330
3
100
AcDbSymbolTableRecord
100
AcDbTextStyleTableRecord
  2
Standard
 70
     0
 40
0.0
 41
1.0
 50
0.0
 71
     0
 42
3.5
  3
txt
  4

  0
STYLE
  5
5F
330
3
100
AcDbSymbolTableRecord
100
AcDbTextStyleTableRecord
  2
SLDTEXTSTYLE0
 70
     0
 40
0.0
 41
0.75
 50
0.0
 71
     0
 42
0.2
  3
TXT
  4

  0
STYLE
  5
6A
330
3
100
AcDbSymbolTableRecord
100
AcDbTextStyleTableRecord
  2
SLDTEXTSTYLE1
 70
     0
 40
0.0
 41
0.6764705882
 50
0.0
 71
     0
 42
0.2
  3
TXT
  4

  0
ENDTAB
  0
TABLE
  2
VIEW
  5
6
330
0
100
AcDbSymbolTable
 70
     0
  0
ENDTAB
  0
TABLE
  2
UCS
  5
7
330
0
100
AcDbSymbolTable
 70
     0
  0
ENDTAB
  0
TABLE
  2
APPID
  5
9
330
0
100
AcDbSymbolTable
 70
     1
  0
APPID
  5
12
330
9
100
AcDbSymbolTableRecord
100
AcDbRegAppTableRecord
  2
ACAD
 70
     0
  0
ENDTAB
  0
TABLE
  2
DIMSTYLE
  5
A
330
0
100
AcDbSymbolTable
 70
     2
100
AcDbDimStyleTable
  0
DIMSTYLE
105
27
330
A
100
AcDbSymbolTableRecord
100
AcDbDimStyleTableRecord
  2
ISO-25
 70
     0
 41
2.5
 42
0.625
 43
3.75
 44
1.25
 73
     0
 74
     0
 77
     1
 78
     8
140
2.5
141
2.5
143
0.0393700787
147
0.625
171
     3
172
     1
178
     0
271
     2
272
     2
274
     3
278
    44
283
     0
284
     8
340
11
  0
DIMSTYLE
105
60
102
{ACAD_REACTORS
330
5E
102
}
330
A
100
AcDbSymbolTableRecord
100
AcDbDimStyleTableRecord
  2
SLDDIMSTYLE0
 70
     0
 41
3.302
 44
0.0
 45
0.000000001
 73
     0
 74
     0
 77
     1
 78
    12
 79
     3
140
3.5
147
0.875
173
     1
178
     0
271
     2
272
     2
276
     2
284
    12
340
5F
  0
ENDTAB
  0
TABLE
  2
BLOCK_RECORD
  5
1
330
0
100
AcDbSymbolTable
 70
     2
  0
BLOCK_RECORD
  5
1F
330
1
100
AcDbSymbolTableRecord
100
AcDbBlockTableRecord
  2
*Model_Space
340
22
  0
BLOCK_RECORD
  5
1B
330
1
100
AcDbSymbolTableRecord
100
AcDbBlockTableRecord
  2
*Paper_Space
340
1E
  0
BLOCK_RECORD
  5
23
330
1
100
AcDbSymbolTableRecord
100
AcDbBlockTableRecord
  2
*Paper_Space0
340
26
  0
BLOCK_RECORD
  5
61
330
1
100
AcDbSymbolTableRecord
100
AcDbBlockTableRecord
  2
_D
340
0
  0
ENDTAB
  0
ENDSEC
  0
SECTION
  2
BLOCKS
  0
BLOCK
  5
20
330
1F
100
AcDbEntity
  8
0
100
AcDbBlockBegin
  2
*Model_Space
 70
     0
 10
0.0
 20
0.0
 30
0.0
  3
*Model_Space
  1

  0
ENDBLK
  5
21
330
1F
100
AcDbEntity
  8
0
100
AcDbBlockEnd
  0
BLOCK
  5
1C
330
1B
100
AcDbEntity
 67
     1
  8
0
100
AcDbBlockBegin
  2
*Paper_Space
 70
     0
 10
0.0
 20
0.0
 30
0.0
  3
*Paper_Space
  1

  0
ENDBLK
  5
1D
330
1B
100
AcDbEntity
 67
     1
  8
0
100
AcDbBlockEnd
  0
BLOCK
  5
24
330
23
100
AcDbEntity
  8
0
100
AcDbBlockBegin
  2
*Paper_Space0
 70
     0
 10
0.0
 20
0.0
 30
0.0
  3
*Paper_Space0
  1

  0
ENDBLK
  5
25
330
23
100
AcDbEntity
  8
0
100
AcDbBlockEnd
  0
BLOCK
  5
62
330
61
100
AcDbEntity
  8
0
100
AcDbBlockBegin
  2
_D
 70
     0
 10
0.0
 20
0.0
 30
0.0
  3
_D
  1

  0
SOLID
  5
64
330
61
100
AcDbEntity
  8
0
  6
Continuous
 62
     7
370
     0
100
AcDbTrace
 10
50.3125
 20
938.7063629207
 30
0.0
 11
53.6145
 21
938.1983629207
 31
0.0
 12
53.6145
 22
939.2143629207
 32
0.0
 13
53.6145
 23
939.2143629207
 33
0.0
  0
SOLID
  5
65
330
61
100
AcDbEntity
  8
0
  6
Continuous
 62
     7
370
     0
100
AcDbTrace
 10
450.3125
 20
938.7063629207
 30
0.0
 11
447.0105
 21
939.2143629207
 31
0.0
 12
447.0105
 22
938.1983629207
 32
0.0
 13
447.0105
 23
938.1983629207
 33
0.0
  0
LINE
  5
66
330
61
100
AcDbEntity
  8
0
  6
Continuous
 62
     7
370
     0
100
AcDbLine
 10
50.3125
 20
916.525352582
 30
0.0
 11
50.3125
 21
939.7063629207
 31
0.0
  0
LINE
  5
67
330
61
100
AcDbEntity
  8
0
  6
Continuous
 62
     7
370
     0
100
AcDbLine
 10
450.3125
 20
916.525352582
 30
0.0
 11
450.3125
 21
939.7063629207
 31
0.0
  0
LINE
  5
68
330
61
100
AcDbEntity
  8
0
  6
Continuous
 62
     7
370
     0
100
AcDbLine
 10
50.3125
 20
938.7063629207
 30
0.0
 11
450.3125
 21
938.7063629207
 31
0.0
  0
MTEXT
  5
69
330
61
100
AcDbEntity
  8
0
  6
Continuous
 62
     7
370
     0
100
AcDbMText
 10
240.3600276791
 20
943.2180998353
 30
-34.9
 40
3.5
 41
0.0
 71
     1
 72
     1
  1
400
  7
SLDTEXTSTYLE0
 73
     1
 44
1.0
  0
ENDBLK
  5
63
330
61
100
AcDbEntity
  8
0
100
AcDbBlockEnd
  0
ENDSEC
  0
SECTION
  2
ENTITIES
  0
LINE
  5
44
330
1F
100
AcDbEntity
  8
0
  6
CENTERX2
 62
     7
100
AcDbLine
 10
450.3125
 20
900.6834282948
 30
0.0
 11
50.3125
 21
900.6834282948
 31
0.0
  0
LINE
  5
45
330
1F
100
AcDbEntity
  8
0
  6
CENTERX2
 62
     7
100
AcDbLine
 10
450.3125
 20
830.9995797205
 30
0.0
 11
50.3125
 21
830.9995797205
 31
0.0
  0
CIRCLE
  5
46
330
1F
100
AcDbEntity
  8
0
  6
Continuous
 62
     7
370
    15
100
AcDbCircle
 10
420.3125
 20
811.7893554334
 30
0.0
 40
3.249999999999943
  0
CIRCLE
  5
47
330
1F
100
AcDbEntity
  8
0
  6
Continuous
 62
     7
370
    15
100
AcDbCircle
 10
420.3125
 20
759.7893554334
 30
0.0
 40
3.249999999999943
  0
CIRCLE
  5
48
330
1F
100
AcDbEntity
  8
0
  6
Continuous
 62
     7
370
    15
100
AcDbCircle
 10
310.3125
 20
811.7893554334
 30
0.0
 40
3.25
  0
CIRCLE
  5
49
330
1F
100
AcDbEntity
  8
0
  6
Continuous
 62
     7
370
    15
100
AcDbCircle
 10
190.3125
 20
759.7893554334
 30
0.0
 40
3.249999999999972
  0
CIRCLE
  5
4A
330
1F
100
AcDbEntity
  8
0
  6
Continuous
 62
     7
370
    15
100
AcDbCircle
 10
190.3125
 20
811.7893554334
 30
0.0
 40
3.249999999999972
  0
CIRCLE
  5
4B
330
1F
100
AcDbEntity
  8
0
  6
Continuous
 62
     7
370
    15
100
AcDbCircle
 10
76.64170112
 20
811.7893554334
 30
0.0
 40
3.250000000000014
  0
CIRCLE
  5
4C
330
1F
100
AcDbEntity
  8
0
  6
Continuous
 62
     7
370
    15
100
AcDbCircle
 10
76.64170112
 20
759.7893554334
 30
0.0
 40
3.250000000000014
  0
CIRCLE
  5
4D
330
1F
100
AcDbEntity
  8
0
  6
Continuous
 62
     7
370
    15
100
AcDbCircle
 10
280.3125
 20
734.7893554334
 30
0.0
 40
3.250000000000057
  0
CIRCLE
  5
4E
330
1F
100
AcDbEntity
  8
0
  6
Continuous
 62
     7
370
    15
100
AcDbCircle
 10
220.3125
 20
734.7893554334
 30
0.0
 40
3.25
  0
CIRCLE
  5
4F
330
1F
100
AcDbEntity
  8
0
  6
Continuous
 62
     7
370
    15
100
AcDbCircle
 10
280.3125
 20
594.7893554334
 30
0.0
 40
3.250000000000057
  0
CIRCLE
  5
50
330
1F
100
AcDbEntity
  8
0
  6
Continuous
 62
     7
370
    15
100
AcDbCircle
 10
220.3125
 20
594.7893554334
 30
0.0
 40
3.249999999999972
  0
CIRCLE
  5
51
330
1F
100
AcDbEntity
  8
0
  6
Continuous
 62
     7
370
    15
100
AcDbCircle
 10
280.3125
 20
820.4210554334
 30
0.0
 40
3.25
  0
CIRCLE
  5
52
330
1F
100
AcDbEntity
  8
0
  6
Continuous
 62
     7
370
    15
100
AcDbCircle
 10
220.3125
 20
820.4210554334
 30
0.0
 40
3.25
  0
LINE
  5
53
330
1F
100
AcDbEntity
  8
0
  6
Continuous
 62
     7
370
    15
100
AcDbLine
 10
310.3125
 20
741.1576554334
 30
0.0
 11
450.3125
 21
741.1576554334
 31
0.0
  0
LINE
  5
54
330
1F
100
AcDbEntity
  8
0
  6
Continuous
 62
     7
370
    15
100
AcDbLine
 10
310.3125
 20
594.6884984128
 30
0.0
 11
310.3125
 21
741.1576554334
 31
0.0
  0
LINE
  5
55
330
1F
100
AcDbEntity
  8
0
  6
Continuous
 62
     7
370
    15
100
AcDbLine
 10
280.3125
 20
564.6884984128
 30
0.0
 11
310.3125
 21
594.6884984128
 31
0.0
  0
LINE
  5
56
330
1F
100
AcDbEntity
  8
0
  6
Continuous
 62
     7
370
    15
100
AcDbLine
 10
220.3125
 20
564.6884984128
 30
0.0
 11
280.3125
 21
564.6884984128
 31
0.0
  0
LINE
  5
57
330
1F
100
AcDbEntity
  8
0
  6
Continuous
 62
     7
370
    15
100
AcDbLine
 10
190.3125
 20
594.6884984128
 30
0.0
 11
220.3125
 21
564.6884984128
 31
0.0
  0
LINE
  5
58
330
1F
100
AcDbEntity
  8
0
  6
Continuous
 62
     7
370
    15
100
AcDbLine
 10
190.3125
 20
741.1576554334
 30
0.0
 11
190.3125
 21
594.6884984128
 31
0.0
  0
LINE
  5
59
330
1F
100
AcDbEntity
  8
0
  6
Continuous
 62
     7
370
    15
100
AcDbLine
 10
50.3125
 20
741.1576554334
 30
0.0
 11
190.3125
 21
741.1576554334
 31
0.0
  0
LINE
  5
5A
330
1F
100
AcDbEntity
  8
0
  6
Continuous
 62
     7
370
    15
100
AcDbLine
 10
50.3125
 20
915.525352582
 30
0.0
 11
450.3125
 21
915.525352582
 31
0.0
  0
CIRCLE
  5
5B
330
1F
100
AcDbEntity
  8
0
  6
Continuous
 62
     7
370
    15
100
AcDbCircle
 10
310.3125
 20
759.7893554334
 30
0.0
 40
3.25
  0
LINE
  5
5C
330
1F
100
AcDbEntity
  8
0
  6
Continuous
 62
     7
370
    15
100
AcDbLine
 10
450.3125
 20
915.525352582
 30
0.0
 11
450.3125
 21
741.1576554334
 31
0.0
  0
LINE
  5
5D
330
1F
100
AcDbEntity
  8
0
  6
Continuous
 62
     7
370
    15
100
AcDbLine
 10
50.3125
 20
741.1576554334
 30
0.0
 11
50.3125
 21
915.525352582
 31
0.0
  0
DIMENSION
  5
5E
330
1F
100
AcDbEntity
  8
0
  6
Continuous
 62
     7
370
     0
100
AcDbDimension
  2
_D
 10
450.3125
 20
938.7063629207
 30
0.0
 11
245.6610692077
 21
938.7063629207
 31
0.0
 70
   160
  1
<>
 71
     2
 42
-1.0
  3
SLDDIMSTYLE0
100
AcDbAlignedDimension
 13
50.3125
 23
915.525352582
 33
0.0
 14
450.3125
 24
915.525352582
 34
0.0
100
AcDbRotatedDimension
  0
MTEXT
  5
6B
330
1F
100
AcDbEntity
  8
0
  6
Continuous
 62
     7
370
     0
100
AcDbMText
 10
249.2843748182
 20
905.1566503408
 30
0.0
 40
3.5
 41
0.0
 71
     2
 72
     1
  1
HAUT  90°  R 0.74
  7
SLDTEXTSTYLE1
 73
     1
 44
1.0
  0
MTEXT
  5
6C
330
1F
100
AcDbEntity
  8
0
  6
Continuous
 62
     7
370
     0
100
AcDbMText
 10
249.2843748182
 20
835.4728017665
 30
0.0
 40
3.5
 41
0.0
 71
     2
 72
     1
  1
HAUT  90°  R 0.74
  7
SLDTEXTSTYLE1
 73
     1
 44
1.0
  0
LINE
  5
6D
330
1F
100
AcDbEntity
  8
0
  6
Continuous
 62
     7
370
    15
100
AcDbLine
 10
505.9951923077
 20
741.1576554334
 30
0.0
 11
502.9951923077
 21
741.1576554334
 31
0.0
  0
LINE
  5
6E
330
1F
100
AcDbEntity
  8
0
  6
Continuous
 62
     7
370
    15
100
AcDbLine
 10
505.9951923077
 20
915.525352582
 30
0.0
 11
502.9951923077
 21
915.525352582
 31
0.0
  0
LINE
  5
6F
330
1F
100
AcDbEntity
  8
0
  6
Continuous
 62
     7
370
    15
100
AcDbLine
 10
505.9951923077
 20
915.525352582
 30
0.0
 11
505.9951923077
 21
741.1576554334
 31
0.0
  0
LINE
  5
70
330
1F
100
AcDbEntity
  8
0
  6
Continuous
 62
     7
370
    15
100
AcDbLine
 10
502.9951923077
 20
915.525352582
 30
0.0
 11
502.9951923077
 21
741.1576554334
 31
0.0
  0
LINE
  5
71
330
1F
100
AcDbEntity
  8
0
  6
Continuous
 62
     7
370
    15
100
AcDbLine
 10
505.9951923077
 20
594.6884984128
 30
0.0
 11
502.9951923077
 21
594.6884984128
 31
0.0
  0
LINE
  5
72
330
1F
100
AcDbEntity
  8
0
  6
Continuous
 62
     7
370
    15
100
AcDbLine
 10
505.9951923077
 20
594.6884984128
 30
0.0
 11
505.9951923077
 21
741.1576554334
 31
0.0
  0
LINE
  5
73
330
1F
100
AcDbEntity
  8
0
  6
Continuous
 62
     7
370
    15
100
AcDbLine
 10
502.9951923077
 20
594.6884984128
 30
0.0
 11
502.9951923077
 21
741.1576554334
 31
0.0
  0
LINE
  5
74
330
1F
100
AcDbEntity
  8
0
  6
Continuous
 62
     7
370
    15
100
AcDbLine
 10
505.9951923077
 20
564.6884984128
 30
0.0
 11
502.9951923077
 21
564.6884984128
 31
0.0
  0
LINE
  5
75
330
1F
100
AcDbEntity
  8
0
  6
Continuous
 62
     7
370
    15
100
AcDbLine
 10
505.9951923077
 20
564.6884984128
 30
0.0
 11
505.9951923077
 21
594.6884984128
 31
0.0
  0
LINE
  5
76
330
1F
100
AcDbEntity
  8
0
  6
Continuous
 62
     7
370
    15
100
AcDbLine
 10
502.9951923077
 20
564.6884984128
 30
0.0
 11
502.9951923077
 21
594.6884984128
 31
0.0
  0
LINE
  5
77
330
1F
100
AcDbEntity
  8
0
  6
Continuous
 62
     7
370
    15
100
AcDbLine
 10
873.1859025057
 20
488.4246977851
 30
0.0
 11
590.3431900311
 21
325.1430754206
 31
0.0
  0
LINE
  5
78
330
1F
100
AcDbEntity
  8
0
  6
Continuous
 62
     7
370
    15
100
AcDbLine
 10
640.6671031723
 20
294.5355435048
 30
0.0
 11
640.6671031723
 21
296.9851659404
 31
0.0
  0
ARC
  5
79
330
1F
100
AcDbEntity
  8
0
  6
Continuous
 62
     7
370
    15
100
AcDbCircle
 10
637.5727898865
 20
292.1477422069
 30
0.0
 40
5.742424843973795
100
AcDbArc
 50
2.6054784857
 51
57.39452166
  0
LINE
  5
7A
330
1F
100
AcDbEntity
  8
0
  6
Continuous
 62
     7
370
    15
100
AcDbLine
 10
641.1879580273
 20
293.6333964352
 30
0.0
 11
643.3092783709
 21
292.4087842674
 31
0.0
  0
ARC
  5
7B
330
1F
100
AcDbEntity
  8
0
  6
Continuous
 62
     7
370
    15
100
AcDbCircle
 10
640.057117847
 20
293.5819369314
 30
0.0
 40
1.132010421256295
100
AcDbArc
 50
2.6054784856
 51
57.39452166
  0
ARC
  5
7C
330
1F
100
AcDbEntity
  8
0
  6
Continuous
 62
     7
370
    15
100
AcDbCircle
 10
920.4155023611
 20
455.4293645714
 30
0.0
 40
5.742424843974492
100
AcDbArc
 50
2.6054784857
 51
57.39452166
  0
LINE
  5
7D
330
1F
100
AcDbEntity
  8
0
  6
Continuous
 62
     7
370
    15
100
AcDbLine
 10
643.3092783709
 20
292.4087842674
 30
0.0
 11
926.1519908455
 21
455.690406632
 31
0.0
  0
LINE
  5
7E
330
1F
100
AcDbEntity
  8
0
  6
Continuous
 62
     7
370
    15
100
AcDbLine
 10
640.6671031723
 20
296.9851659404
 30
0.0
 11
923.5098156469
 21
460.266788305
 31
0.0
  0
LINE
  5
7F
330
1F
100
AcDbEntity
  8
0
  6
Continuous
 62
     7
370
    15
100
AcDbLine
 10
926.1519908455
 20
444.0437584157
 30
0.0
 11
926.1519908455
 21
455.690406632
 31
0.0
  0
LINE
  5
80
330
1F
100
AcDbEntity
  8
0
  6
Continuous
 62
     7
370
    15
100
AcDbLine
 10
643.3092783709
 20
280.7621360512
 30
0.0
 11
926.1519908455
 21
444.0437584157
 31
0.0
  0
LINE
  5
81
330
1F
100
AcDbEntity
  8
0
  6
Continuous
 62
     7
370
    15
100
AcDbLine
 10
643.3092783709
 20
292.4087842674
 30
0.0
 11
643.3092783709
 21
280.7621360512
 31
0.0
  0
LINE
  5
82
330
1F
100
AcDbEntity
  8
0
  6
Continuous
 62
     7
370
    15
100
AcDbLine
 10
643.3092783709
 20
280.7621360512
 30
0.0
 11
641.1879580273
 21
281.9867482189
 31
0.0
  0
LINE
  5
83
330
1F
100
AcDbEntity
  8
0
  6
Continuous
 62
     7
370
    15
100
AcDbLine
 10
641.1879580273
 20
293.6333964352
 30
0.0
 11
641.1879580273
 21
281.9867482189
 31
0.0
  0
LINE
  5
84
330
1F
100
AcDbEntity
  8
0
  6
Continuous
 62
     7
370
    15
100
AcDbLine
 10
592.2113381993
 20
322.5084612034
 30
0.0
 11
640.6671031723
 21
294.5355435048
 31
0.0
  0
LINE
  5
85
330
1F
100
AcDbEntity
  8
0
  6
Continuous
 62
     7
370
    15
100
AcDbLine
 10
592.2113381993
 20
322.5084612034
 30
0.0
 11
592.2113381993
 21
324.9580836391
 31
0.0
  0
LINE
  5
86
330
1F
100
AcDbEntity
  8
0
  6
Continuous
 62
     7
370
    15
100
AcDbLine
 10
592.2113381993
 20
324.9580836391
 30
0.0
 11
640.6671031723
 21
296.9851659404
 31
0.0
  0
LINE
  5
87
330
1F
100
AcDbEntity
  8
0
  6
Continuous
 62
     7
370
    15
100
AcDbLine
 10
592.2113381993
 20
324.9580836391
 30
0.0
 11
875.0540506739
 21
488.2397060036
 31
0.0
  0
LINE
  5
88
330
1F
100
AcDbEntity
  8
0
  6
Continuous
 62
     7
370
    15
100
AcDbLine
 10
923.5098156469
 20
460.266788305
 30
0.0
 11
875.0540506739
 21
488.2397060036
 31
0.0
  0
LINE
  5
89
330
1F
100
AcDbEntity
  8
0
  6
Continuous
 62
     7
370
    15
100
AcDbLine
 10
591.6904833442
 20
322.207680349
 30
0.0
 11
589.5691630007
 21
323.4322925167
 31
0.0
  0
ARC
  5
8A
330
1F
100
AcDbEntity
  8
0
  6
Continuous
 62
     7
370
    15
100
AcDbCircle
 10
591.179915482
 20
323.6935824806
 30
0.0
 40
1.631807587111384
100
AcDbArc
 50
50.7967147643
 51
189.2140369905
  0
ARC
  5
8B
330
1F
100
AcDbEntity
  8
0
  6
Continuous
 62
     7
370
    15
100
AcDbCircle
 10
592.0080127233
 20
322.2591887222
 30
0.0
 40
0.3216799948258131
100
AcDbArc
 50
50.7967147643
 51
189.2140369905
  0
ARC
  5
8C
330
1F
100
AcDbEntity
  8
0
  6
Continuous
 62
     7
370
    15
100
AcDbCircle
 10
873.9595255969
 20
486.7118800292
 30
0.0
 40
1.879424739670267
100
AcDbArc
 50
54.3824225248
 51
114.3071190461
  0
LINE
  5
8D
330
1F
100
AcDbEntity
  8
0
  6
Continuous
 62
     7
370
    15
100
AcDbLine
 10
591.6904833442
 20
322.207680349
 30
0.0
 11
592.2114228597
 21
322.50841233
 31
0.0
  0
LINE
  5
8E
330
1F
100
AcDbEntity
  8
0
  6
Continuous
 62
     7
370
    15
100
AcDbLine
 10
775.5382464527
 20
355.4535257782
 30
0.0
 11
874.5331958189
 21
412.6020936058
 31
0.0
  0
LINE
  5
8F
330
1F
100
AcDbEntity
  8
0
  6
Continuous
 62
     7
370
    15
100
AcDbLine
 10
775.5382464527
 20
235.8554813884
 30
0.0
 11
775.5382464527
 21
355.4535257782
 31
0.0
  0
LINE
  5
90
330
1F
100
AcDbEntity
  8
0
  6
Continuous
 62
     7
370
    15
100
AcDbLine
 10
754.3250430171
 20
199.1131353545
 30
0.0
 11
775.5382464527
 21
235.8554813884
 31
0.0
  0
LINE
  5
91
330
1F
100
AcDbEntity
  8
0
  6
Continuous
 62
     7
370
    15
100
AcDbLine
 10
711.898636146
 20
174.6208919998
 30
0.0
 11
754.3250430171
 21
199.1131353545
 31
0.0
  0
LINE
  5
92
330
1F
100
AcDbEntity
  8
0
  6
Continuous
 62
     7
370
    15
100
AcDbLine
 10
690.6854327104
 20
186.8709946791
 30
0.0
 11
711.898636146
 21
174.6208919998
 31
0.0
  0
LINE
  5
93
330
1F
100
AcDbEntity
  8
0
  6
Continuous
 62
     7
370
    15
100
AcDbLine
 10
690.6854327104
 20
306.4690390689
 30
0.0
 11
690.6854327104
 21
186.8709946791
 31
0.0
  0
LINE
  5
94
330
1F
100
AcDbEntity
  8
0
  6
Continuous
 62
     7
370
    15
100
AcDbLine
 10
591.6904833442
 20
249.3204712413
 30
0.0
 11
690.6854327104
 21
306.4690390689
 31
0.0
  0
LINE
  5
95
330
1F
100
AcDbEntity
  8
0
  6
Continuous
 62
     7
370
    15
100
AcDbLine
 10
591.6904833442
 20
322.207680349
 30
0.0
 11
591.6904833442
 21
249.3204712413
 31
0.0
  0
LINE
  5
96
330
1F
100
AcDbEntity
  8
0
  6
Continuous
 62
     7
370
    15
100
AcDbLine
 10
874.5331958189
 20
412.6020936058
 30
0.0
 11
874.5331958189
 21
414.2448623342
 31
0.0
  0
LWPOLYLINE
  5
97
330
1F
100
AcDbEntity
  8
0
  6
Continuous
 62
     7
370
    15
100
AcDbPolyline
 90
       20
 70
   128
 43
0.0
 10
612.6061370383
 20
276.6083645539
 10
612.4816198019
 20
277.39815598
 10
612.1215614673
 20
277.9585967092
 10
611.564979942
 20
278.2289542924
 10
610.8721894705
 20
278.1799312902
 10
610.1182646501
 20
277.8168401058
 10
609.3849049335
 20
277.1790273029
 10
608.7515812252
 20
276.3356097953
 10
608.286923976
 20
275.377984957
 10
608.0412860088
 20
274.4099262983
 10
608.0412860088
 20
273.5363379959
 10
608.286923976
 20
272.8518868973
 10
608.7515812252
 20
272.4307438996
 10
609.3849049335
 20
272.3185463812
 10
610.1182646501
 20
272.5274526841
 10
610.8721894705
 20
273.034824569
 10
611.564979942
 20
273.7856804194
 10
612.1215614673
 20
274.6986533532
 10
612.4816198019
 20
275.6748085867
 10
612.6061370383
 20
276.6083645539
  0
LWPOLYLINE
  5
98
330
1F
100
AcDbEntity
  8
0
  6
Continuous
 62
     7
370
    15
100
AcDbPolyline
 90
       20
 70
   128
 43
0.0
 10
756.623140056
 20
339.3340904303
 10
756.4986228196
 20
340.1238818564
 10
756.138564485
 20
340.6843225856
 10
755.5819829597
 20
340.9546801687
 10
754.8891924882
 20
340.9056571666
 10
754.1352676678
 20
340.5425659822
 10
753.4019079512
 20
339.9047531793
 10
752.7685842429
 20
339.0613356717
 10
752.3039269937
 20
338.1037108334
 10
752.0582890266
 20
337.1356521747
 10
752.0582890266
 20
336.2620638722
 10
752.3039269937
 20
335.5776127737
 10
752.7685842429
 20
335.156469776
 10
753.4019079512
 20
335.0442722576
 10
754.1352676678
 20
335.2531785605
 10
754.8891924882
 20
335.7605504454
 10
755.5819829597
 20
336.5114062958
 10
756.138564485
 20
337.4243792295
 10
756.4986228196
 20
338.4005344631
 10
756.623140056
 20
339.3340904303
  0
LWPOLYLINE
  5
99
330
1F
100
AcDbEntity
  8
0
  6
Continuous
 62
     7
370
    15
100
AcDbPolyline
 90
       20
 70
   128
 43
0.0
 10
714.1967331848
 20
314.8418470756
 10
714.0722159484
 20
315.6316385017
 10
713.7121576138
 20
316.1920792309
 10
713.1555760885
 20
316.4624368141
 10
712.462785617
 20
316.4134138119
 10
711.7088607967
 20
316.0503226275
 10
710.97550108
 20
315.4125098246
 10
710.3421773717
 20
314.569092317
 10
709.8775201226
 20
313.6114674787
 10
709.6318821554
 20
312.64340882
 10
709.6318821554
 20
311.7698205176
 10
709.8775201226
 20
311.085369419
 10
710.3421773717
 20
310.6642264213
 10
710.97550108
 20
310.5520289029
 10
711.7088607967
 20
310.7609352058
 10
712.462785617
 20
311.2683070907
 10
713.1555760885
 20
312.0191629411
 10
713.7121576138
 20
312.9321358749
 10
714.0722159484
 20
313.9082911084
 10
714.1967331848
 20
314.8418470756
  0
LWPOLYLINE
  5
9A
330
1F
100
AcDbEntity
  8
0
  6
Continuous
 62
     7
370
    15
100
AcDbPolyline
 90
       20
 70
   128
 43
0.0
 10
756.623140056
 20
225.0183767663
 10
756.4986228196
 20
225.8081681924
 10
756.138564485
 20
226.3686089216
 10
755.5819829597
 20
226.6389665047
 10
754.8891924882
 20
226.5899435026
 10
754.1352676678
 20
226.2268523182
 10
753.4019079512
 20
225.5890395153
 10
752.7685842429
 20
224.7456220077
 10
752.3039269937
 20
223.7879971694
 10
752.0582890266
 20
222.8199385107
 10
752.0582890266
 20
221.9463502082
 10
752.3039269937
 20
221.2618991097
 10
752.7685842429
 20
220.840756112
 10
753.4019079512
 20
220.7285585935
 10
754.1352676678
 20
220.9374648965
 10
754.8891924882
 20
221.4448367814
 10
755.5819829597
 20
222.1956926318
 10
756.138564485
 20
223.1086655655
 10
756.4986228196
 20
224.0848207991
 10
756.623140056
 20
225.0183767663
  0
LWPOLYLINE
  5
9B
330
1F
100
AcDbEntity
  8
0
  6
Continuous
 62
     7
370
    15
100
AcDbPolyline
 90
       20
 70
   128
 43
0.0
 10
714.1967331848
 20
200.5261334116
 10
714.0722159484
 20
201.3159248377
 10
713.7121576138
 20
201.8763655669
 10
713.1555760885
 20
202.1467231501
 10
712.462785617
 20
202.0977001479
 10
711.7088607967
 20
201.7346089635
 10
710.97550108
 20
201.0967961606
 10
710.3421773717
 20
200.253378653
 10
709.8775201226
 20
199.2957538147
 10
709.6318821554
 20
198.327695156
 10
709.6318821554
 20
197.4541068536
 10
709.8775201226
 20
196.769655755
 10
710.3421773717
 20
196.3485127573
 10
710.97550108
 20
196.2363152389
 10
711.7088607967
 20
196.4452215418
 10
712.462785617
 20
196.9525934267
 10
713.1555760885
 20
197.7034492771
 10
713.7121576138
 20
198.6164222108
 10
714.0722159484
 20
199.5925774444
 10
714.1967331848
 20
200.5261334116
  0
LINE
  5
9C
330
1F
100
AcDbEntity
  8
0
  6
Continuous
 62
     7
370
    15
100
AcDbLine
 10
589.5691630007
 20
250.545083409
 30
0.0
 11
591.6904833442
 21
249.3204712413
 31
0.0
  0
LINE
  5
9D
330
1F
100
AcDbEntity
  8
0
  6
Continuous
 62
     7
370
    15
100
AcDbLine
 10
589.5691630007
 20
323.4322925167
 30
0.0
 11
589.5691630007
 21
250.545083409
 31
0.0
  0
ARC
  5
9E
330
1F
100
AcDbEntity
  8
0
  6
Continuous
 62
     7
370
    15
100
AcDbCircle
 10
605.7309740396
 20
277.9239853082
 30
0.0
 40
4.748594634657102
100
AcDbArc
 50
298.7679433329
 51
1.2374331998
  0
LINE
  5
9F
330
1F
100
AcDbEntity
  8
0
  6
Continuous
 62
     7
370
    15
100
AcDbLine
 10
688.5641123668
 20
188.0956068468
 30
0.0
 11
690.6854327104
 21
186.8709946791
 31
0.0
  0
LINE
  5
A0
330
1F
100
AcDbEntity
  8
0
  6
Continuous
 62
     7
370
    15
100
AcDbLine
 10
688.5641123668
 20
305.2444269011
 30
0.0
 11
688.5641123668
 21
188.0956068468
 31
0.0
  0
ARC
  5
A1
330
1F
100
AcDbEntity
  8
0
  6
Continuous
 62
     7
370
    15
100
AcDbCircle
 10
707.3215701861
 20
316.1574678299
 30
0.0
 40
4.748594634655559
100
AcDbArc
 50
298.7679433329
 51
1.2374331998
  0
ARC
  5
A2
330
1F
100
AcDbEntity
  8
0
  6
Continuous
 62
     7
370
    15
100
AcDbCircle
 10
749.7479770573
 20
340.6497111846
 30
0.0
 40
4.748594634655976
100
AcDbArc
 50
298.7679433329
 51
1.2374331998
  0
LINE
  5
A3
330
1F
100
AcDbEntity
  8
0
  6
Continuous
 62
     7
370
    15
100
AcDbLine
 10
709.7773158024
 20
175.8455041676
 30
0.0
 11
711.898636146
 21
174.6208919998
 31
0.0
  0
LINE
  5
A4
330
1F
100
AcDbEntity
  8
0
  6
Continuous
 62
     7
370
    15
100
AcDbLine
 10
688.5641123668
 20
188.0956068468
 30
0.0
 11
709.7773158024
 21
175.8455041676
 31
0.0
  0
ARC
  5
A5
330
1F
100
AcDbEntity
  8
0
  6
Continuous
 62
     7
370
    15
100
AcDbCircle
 10
707.3215701861
 20
201.8417541659
 30
0.0
 40
4.748594634655882
100
AcDbArc
 50
298.7679433329
 51
1.2374331998
  0
ARC
  5
A6
330
1F
100
AcDbEntity
  8
0
  6
Continuous
 62
     7
370
    15
100
AcDbCircle
 10
749.7479770573
 20
226.3339975206
 30
0.0
 40
4.74859463465438
100
AcDbArc
 50
298.7679433328
 51
1.2374331999
  0
LINE
  5
A7
330
1F
100
AcDbEntity
  8
0
  6
Continuous
 62
     7
370
    15
100
AcDbLine
 10
967.061522544
 20
833.2184439533
 30
0.0
 11
586.2803550443
 21
880.3199564725
 31
0.0
  0
LINE
  5
A8
330
1F
100
AcDbEntity
  8
0
  6
Continuous
 62
     7
370
    15
100
AcDbLine
 10
586.0634991954
 20
863.3090676524
 30
0.0
 11
585.1635620138
 21
862.7907447929
 31
0.0
  0
LINE
  5
A9
330
1F
100
AcDbEntity
  8
0
  6
Continuous
 62
     7
370
    15
100
AcDbLine
 10
586.0634991954
 20
863.3090676524
 30
0.0
 11
966.8446666951
 21
816.2075551332
 31
0.0
  0
LINE
  5
AA
330
1F
100
AcDbEntity
  8
0
  6
Continuous
 62
     7
370
    15
100
AcDbLine
 10
966.8446666951
 20
816.2075551332
 30
0.0
 11
965.9447295135
 21
815.6892322737
 31
0.0
  0
LINE
  5
AB
330
1F
100
AcDbEntity
  8
0
  6
Continuous
 62
     7
370
    15
100
AcDbLine
 10
585.1635620138
 20
862.7907447929
 30
0.0
 11
965.9447295135
 21
815.6892322737
 31
0.0
  0
LINE
  5
AC
330
1F
100
AcDbEntity
  8
0
  6
Continuous
 62
     7
370
    15
100
AcDbLine
 10
586.9425463851
 20
877.2572077355
 30
0.0
 11
586.0634991954
 21
863.3090676524
 31
0.0
  0
LINE
  5
AD
330
1F
100
AcDbEntity
  8
0
  6
Continuous
 62
     7
370
    15
100
AcDbLine
 10
586.0426092036
 20
876.738884876
 30
0.0
 11
585.1635620138
 21
862.7907447929
 31
0.0
  0
LINE
  5
AE
330
1F
100
AcDbEntity
  8
0
  6
Continuous
 62
     7
370
    15
100
AcDbLine
 10
586.0426092036
 20
876.738884876
 30
0.0
 11
586.9425463851
 21
877.2572077355
 31
0.0
  0
LINE
  5
AF
330
1F
100
AcDbEntity
  8
0
  6
Continuous
 62
     7
370
    15
100
AcDbLine
 10
966.8446666951
 20
816.2075551332
 30
0.0
 11
967.7237138848
 21
830.1556952163
 31
0.0
  0
LINE
  5
B0
330
1F
100
AcDbEntity
  8
0
  6
Continuous
 62
     7
370
    15
100
AcDbLine
 10
586.9425463851
 20
877.2572077355
 30
0.0
 11
967.7237138848
 21
830.1556952163
 31
0.0
  0
LINE
  5
B1
330
1F
100
AcDbEntity
  8
0
  6
Continuous
 62
     7
370
    15
100
AcDbLine
 10
585.8670409679
 20
877.331938474
 30
0.0
 11
586.0519296739
 21
880.2656303181
 31
0.0
  0
LWPOLYLINE
  5
B2
330
1F
100
AcDbEntity
  8
0
  6
Continuous
 62
     7
370
    15
100
AcDbPolyline
 90
        9
 70
   128
 43
0.0
 10
586.9425463851
 20
877.2572077355
 10
586.965934956
 20
877.9576651145
 10
586.9453490913
 20
878.6063947091
 10
586.8815798942
 20
879.1784662048
 10
586.7770779792
 20
879.6518952149
 10
586.6358592964
 20
880.008488128
 10
586.4633508004
 20
880.2345412784
 10
586.2661818961
 20
880.3213675704
 10
586.0519296739
 20
880.2656303181
  0
LWPOLYLINE
  5
B3
330
1F
100
AcDbEntity
  8
0
  6
Continuous
 62
     7
370
    15
100
AcDbPolyline
 90
        9
 70
   128
 43
0.0
 10
586.0426092036
 20
876.738884876
 10
586.0472198178
 20
876.8769667968
 10
586.043161704
 20
877.0048515636
 10
586.0305908132
 20
877.1176246363
 10
586.0099902377
 20
877.2109522092
 10
585.982151646
 20
877.2812477559
 10
585.9481448596
 20
877.325809858
 10
585.9092767402
 20
877.3429260188
 10
585.8670409679
 20
877.331938474
  0
LWPOLYLINE
  5
B4
330
1F
100
AcDbEntity
  8
0
  6
Continuous
 62
     7
370
    15
100
AcDbPolyline
 90
        8
 70
   128
 43
0.0
 10
967.061522544
 20
833.2184439533
 10
967.2445183001
 20
833.1330287592
 10
967.4170267961
 20
832.9069756088
 10
967.5582454789
 20
832.5503826957
 10
967.6627473939
 20
832.0769536856
 10
967.726516591
 20
831.5048821899
 10
967.7471024557
 20
830.8561525953
 10
967.7237138848
 20
830.1556952163
  0
LINE
  5
B5
330
1F
100
AcDbEntity
  8
0
  6
Continuous
 62
     7
370
    15
100
AcDbLine
 10
585.8670409679
 20
877.331938474
 30
0.0
 11
585.9531337105
 21
877.3212890545
 31
0.0
  0
LINE
  5
B6
330
1F
100
AcDbEntity
  8
0
  6
Continuous
 62
     7
370
    15
100
AcDbLine
 10
565.3104358834
 20
865.4922694978
 30
0.0
 11
585.8670409679
 21
877.331938474
 31
0.0
  0
LINE
  5
B7
330
1F
100
AcDbEntity
  8
0
  6
Continuous
 62
     7
370
    15
100
AcDbLine
 10
565.3104358834
 20
865.4922694978
 30
0.0
 11
565.4953245894
 21
868.4259613419
 31
0.0
  0
LINE
  5
B8
330
1F
100
AcDbEntity
  8
0
  6
Continuous
 62
     7
370
    15
100
AcDbLine
 10
565.4953245894
 20
868.4259613419
 30
0.0
 11
586.0519296739
 21
880.2656303181
 31
0.0
  0
LINE
  5
B9
330
1F
100
AcDbEntity
  8
0
  6
Continuous
 62
     7
370
    15
100
AcDbLine
 10
585.1789300788
 20
863.0345950959
 30
0.0
 11
565.3104358834
 21
865.4922694978
 31
0.0
  0
LINE
  5
BA
330
1F
100
AcDbEntity
  8
0
  6
Continuous
 62
     7
370
    15
100
AcDbLine
 10
807.050569002
 20
746.7382654975
 30
0.0
 11
940.3239776269
 21
730.2527361157
 31
0.0
  0
LINE
  5
BB
330
1F
100
AcDbEntity
  8
0
  6
Continuous
 62
     7
370
    15
100
AcDbLine
 10
798.0237380315
 20
603.5064750422
 30
0.0
 11
807.050569002
 21
746.7382654975
 31
0.0
  0
LINE
  5
BC
330
1F
100
AcDbEntity
  8
0
  6
Continuous
 62
     7
370
    15
100
AcDbLine
 10
767.6162634089
 20
577.70217004
 30
0.0
 11
798.0237380315
 21
603.5064750422
 31
0.0
  0
LINE
  5
BD
330
1F
100
AcDbEntity
  8
0
  6
Continuous
 62
     7
370
    15
100
AcDbLine
 10
710.499088284
 20
584.7673969179
 30
0.0
 11
767.6162634089
 21
577.70217004
 31
0.0
  0
LINE
  5
BE
330
1F
100
AcDbEntity
  8
0
  6
Continuous
 62
     7
370
    15
100
AcDbLine
 10
683.7893877816
 20
617.636928798
 30
0.0
 11
710.499088284
 21
584.7673969179
 31
0.0
  0
LINE
  5
BF
330
1F
100
AcDbEntity
  8
0
  6
Continuous
 62
     7
370
    15
100
AcDbLine
 10
692.8162187521
 20
760.8687192532
 30
0.0
 11
683.7893877816
 21
617.636928798
 31
0.0
  0
LINE
  5
C0
330
1F
100
AcDbEntity
  8
0
  6
Continuous
 62
     7
370
    15
100
AcDbLine
 10
559.5428101272
 20
777.3542486349
 30
0.0
 11
692.8162187521
 21
760.8687192532
 31
0.0
  0
LINE
  5
C1
330
1F
100
AcDbEntity
  8
0
  6
Continuous
 62
     7
370
    15
100
AcDbLine
 10
565.0440749672
 20
864.6446848209
 30
0.0
 11
559.5428101272
 21
777.3542486349
 31
0.0
  0
LINE
  5
C2
330
1F
100
AcDbEntity
  8
0
  6
Continuous
 62
     7
370
    15
100
AcDbLine
 10
565.0440749672
 20
864.6446848209
 30
0.0
 11
945.8252424669
 21
817.5431723017
 31
0.0
  0
LINE
  5
C3
330
1F
100
AcDbEntity
  8
0
  6
Continuous
 62
     7
370
    15
100
AcDbLine
 10
940.3239776269
 20
730.2527361157
 30
0.0
 11
945.8252424669
 21
817.5431723017
 31
0.0
  0
LWPOLYLINE
  5
C4
330
1F
100
AcDbEntity
  8
0
  6
Continuous
 62
     7
370
    15
100
AcDbPolyline
 90
       20
 70
   128
 43
0.0
 10
919.2122382558
 20
802.4731971741
 10
919.1096411291
 20
803.5258817709
 10
918.6828956661
 20
804.505963118
 10
917.9782463594
 20
805.3072341937
 10
917.0720528952
 20
805.8428648442
 10
916.0625153962
 20
806.0548111771
 10
915.0590329151
 20
805.9201055188
 10
914.1703483495
 20
805.4533453173
 10
913.4927644612
 20
804.7051112832
 10
913.0997079785
 20
803.7564861839
 10
913.03377267
 20
802.7102682686
 10
913.3021036497
 20
801.6798314819
 10
913.8756230922
 20
800.7768396387
 10
914.6921812669
 20
800.0991459166
 10
915.6632914253
 20
799.7201889457
 10
916.6837187135
 20
799.6810345941
 10
917.6428840012
 20
799.9859258433
 10
918.4368468465
 20
800.6018229955
 10
918.9795690556
 20
801.4619840376
 10
919.2122382558
 20
802.4731971741
  0
LWPOLYLINE
  5
C5
330
1F
100
AcDbEntity
  8
0
  6
Continuous
 62
     7
370
    15
100
AcDbPolyline
 90
       20
 70
   128
 43
0.0
 10
916.007500685
 20
751.6225385428
 10
915.9049035583
 20
752.6752231396
 10
915.4781580953
 20
753.6553044866
 10
914.7735087886
 20
754.4565755624
 10
913.8673153243
 20
754.9922062128
 10
912.8577778254
 20
755.2041525458
 10
911.8542953443
 20
755.0694468874
 10
910.9656107787
 20
754.602686686
 10
910.2880268904
 20
753.8544526518
 10
909.8949704077
 20
752.9058275526
 10
909.8290350992
 20
751.8596096372
 10
910.0973660789
 20
750.8291728506
 10
910.6708855214
 20
749.9261810074
 10
911.4874436961
 20
749.2484872853
 10
912.4585538545
 20
748.8695303144
 10
913.4789811427
 20
748.8303759628
 10
914.4381464304
 20
749.1352672119
 10
915.2321092757
 20
749.7511643641
 10
915.7748314847
 20
750.6113254063
 10
916.007500685
 20
751.6225385428
  0
LWPOLYLINE
  5
C6
330
1F
100
AcDbEntity
  8
0
  6
Continuous
 62
     7
370
    15
100
AcDbPolyline
 90
       20
 70
   128
 43
0.0
 10
814.4974171933
 20
815.4261131169
 10
814.3948200667
 20
816.4787977137
 10
813.9680746037
 20
817.4588790608
 10
813.263425297
 20
818.2601501365
 10
812.3572318327
 20
818.795780787
 10
811.3476943338
 20
819.0077271199
 10
810.3442118527
 20
818.8730214615
 10
809.455527287
 20
818.4062612601
 10
808.7779433988
 20
817.6580272259
 10
808.384886916
 20
816.7094021267
 10
808.3189516076
 20
815.6631842113
 10
808.5872825873
 20
814.6327474247
 10
809.1608020298
 20
813.7297555815
 10
809.9773602044
 20
813.0520618594
 10
810.9484703629
 20
812.6731048885
 10
811.9688976511
 20
812.6339505369
 10
812.9280629388
 20
812.9388417861
 10
813.7220257841
 20
813.5547389383
 10
814.2647479931
 20
814.4148999804
 10
814.4974171933
 20
815.4261131169
  0
LWPOLYLINE
  5
C7
330
1F
100
AcDbEntity
  8
0
  6
Continuous
 62
     7
370
    15
100
AcDbPolyline
 90
       20
 70
   128
 43
0.0
 10
811.2926796225
 20
764.5754544856
 10
811.1900824958
 20
765.6281390824
 10
810.7633370329
 20
766.6082204294
 10
810.0586877262
 20
767.4094915052
 10
809.1524942619
 20
767.9451221556
 10
808.142956763
 20
768.1570684886
 10
807.1394742819
 20
768.0223628302
 10
806.2507897162
 20
767.5556026288
 10
805.573205828
 20
766.8073685946
 10
805.1801493452
 20
765.8587434954
 10
805.1142140368
 20
764.81252558
 10
805.3825450165
 20
763.7820887934
 10
805.956064459
 20
762.8790969502
 10
806.7726226336
 20
762.201403228
 10
807.7437327921
 20
761.8224462572
 10
808.7641600802
 20
761.7832919056
 10
809.723325368
 20
762.0881831547
 10
810.5172882133
 20
762.7040803069
 10
811.0600104223
 20
763.5642413491
 10
811.2926796225
 20
764.5754544856
  0
LWPOLYLINE
  5
C8
330
1F
100
AcDbEntity
  8
0
  6
Continuous
 62
     7
370
    15
100
AcDbPolyline
 90
       20
 70
   128
 43
0.0
 10
697.0583293726
 20
778.7059082413
 10
696.9557322459
 20
779.7585928382
 10
696.528986783
 20
780.7386741852
 10
695.8243374763
 20
781.539945261
 10
694.918144012
 20
782.0755759114
 10
693.9086065131
 20
782.2875222443
 10
692.905124032
 20
782.152816586
 10
692.0164394663
 20
781.6860563845
 10
691.3388555781
 20
780.9378223504
 10
690.9457990953
 20
779.9891972511
 10
690.8798637869
 20
778.9429793358
 10
691.1481947665
 20
777.9125425491
 10
691.721714209
 20
777.009550706
 10
692.5382723837
 20
776.3318569838
 10
693.5093825421
 20
775.952900013
 10
694.5298098303
 20
775.9137456613
 10
695.488975118
 20
776.2186369105
 10
696.2829379634
 20
776.8345340627
 10
696.8256601724
 20
777.6946951049
 10
697.0583293726
 20
778.7059082413
  0
LWPOLYLINE
  5
C9
330
1F
100
AcDbEntity
  8
0
  6
Continuous
 62
     7
370
    15
100
AcDbPolyline
 90
       20
 70
   128
 43
0.0
 10
700.2630669434
 20
829.5565668727
 10
700.1604698167
 20
830.6092514695
 10
699.7337243538
 20
831.5893328165
 10
699.0290750471
 20
832.3906038923
 10
698.1228815828
 20
832.9262345427
 10
697.1133440839
 20
833.1381808757
 10
696.1098616028
 20
833.0034752173
 10
695.2211770371
 20
832.5367150159
 10
694.5435931489
 20
831.7884809817
 10
694.1505366661
 20
830.8398558825
 10
694.0846013577
 20
829.7936379671
 10
694.3529323374
 20
828.7632011805
 10
694.9264517798
 20
827.8602093373
 10
695.7430099545
 20
827.1825156151
 10
696.714120113
 20
826.8035586443
 10
697.7345474011
 20
826.7644042927
 10
698.6937126888
 20
827.0692955418
 10
699.4876755342
 20
827.685192694
 10
700.0303977432
 20
828.5453537362
 10
700.2630669434
 20
829.5565668727
  0
LWPOLYLINE
  5
CA
330
1F
100
AcDbEntity
  8
0
  6
Continuous
 62
     7
370
    15
100
AcDbPolyline
 90
       20
 70
   128
 43
0.0
 10
592.053818173
 20
842.9417332639
 10
591.9512210463
 20
843.9944178608
 10
591.5244755834
 20
844.9744992078
 10
590.8198262767
 20
845.7757702836
 10
589.9136328124
 20
846.311400934
 10
588.9040953135
 20
846.523347267
 10
587.9006128324
 20
846.3886416086
 10
587.0119282667
 20
845.9218814071
 10
586.3343443785
 20
845.173647373
 10
585.9412878957
 20
844.2250222737
 10
585.8753525873
 20
843.1788043584
 10
586.143683567
 20
842.1483675718
 10
586.7172030095
 20
841.2453757286
 10
587.5337611841
 20
840.5676820064
 10
588.5048713426
 20
840.1887250356
 10
589.5252986307
 20
840.1495706839
 10
590.4844639185
 20
840.4544619331
 10
591.2784267638
 20
841.0703590853
 10
591.8211489728
 20
841.9305201275
 10
592.053818173
 20
842.9417332639
  0
LWPOLYLINE
  5
CB
330
1F
100
AcDbEntity
  8
0
  6
Continuous
 62
     7
370
    15
100
AcDbPolyline
 90
       20
 70
   128
 43
0.0
 10
588.8490806022
 20
792.0910746326
 10
588.7464834755
 20
793.1437592294
 10
588.3197380126
 20
794.1238405765
 10
587.6150887059
 20
794.9251116522
 10
586.7088952416
 20
795.4607423027
 10
585.6993577427
 20
795.6726886356
 10
584.6958752616
 20
795.5379829773
 10
583.8071906959
 20
795.0712227758
 10
583.1296068077
 20
794.3229887417
 10
582.7365503249
 20
793.3743636424
 10
582.6706150165
 20
792.3281457271
 10
582.9389459962
 20
791.2977089404
 10
583.5124654387
 20
790.3947170973
 10
584.3290236133
 20
789.7170233751
 10
585.3001337718
 20
789.3380664042
 10
586.3205610599
 20
789.2989120526
 10
587.2797263477
 20
789.6038033018
 10
588.073689193
 20
790.219700454
 10
588.616411402
 20
791.0798614961
 10
588.8490806022
 20
792.0910746326
  0
LWPOLYLINE
  5
CC
330
1F
100
AcDbEntity
  8
0
  6
Continuous
 62
     7
370
    15
100
AcDbPolyline
 90
       20
 70
   128
 43
0.0
 10
781.1933528433
 20
743.6606358902
 10
781.0907557166
 20
744.713320487
 10
780.6640102537
 20
745.6934018341
 10
779.959360947
 20
746.4946729098
 10
779.0531674827
 20
747.0303035603
 10
778.0436299838
 20
747.2422498932
 10
777.0401475027
 20
747.1075442349
 10
776.151462937
 20
746.6407840334
 10
775.4738790488
 20
745.8925499993
 10
775.080822566
 20
744.9439249
 10
775.0148872576
 20
743.8977069847
 10
775.2832182373
 20
742.867270198
 10
775.8567376797
 20
741.9642783549
 10
776.6732958544
 20
741.2865846327
 10
777.6444060129
 20
740.9076276618
 10
778.664833301
 20
740.8684733102
 10
779.6239985887
 20
741.1733645594
 10
780.4179614341
 20
741.7892617116
 10
780.9606836431
 20
742.6494227538
 10
781.1933528433
 20
743.6606358902
  0
LWPOLYLINE
  5
CD
330
1F
100
AcDbEntity
  8
0
  6
Continuous
 62
     7
370
    15
100
AcDbPolyline
 90
       20
 70
   128
 43
0.0
 10
724.0761777184
 20
750.7258627681
 10
723.9735805917
 20
751.7785473649
 10
723.5468351287
 20
752.758628712
 10
722.842185822
 20
753.5598997877
 10
721.9359923578
 20
754.0955304382
 10
720.9264548588
 20
754.3074767711
 10
719.9229723778
 20
754.1727711127
 10
719.0342878121
 20
753.7060109113
 10
718.3567039238
 20
752.9577768771
 10
717.9636474411
 20
752.0091517779
 10
717.8977121326
 20
750.9629338625
 10
718.1660431123
 20
749.9324970759
 10
718.7395625548
 20
749.0295052327
 10
719.5561207295
 20
748.3518115106
 10
720.5272308879
 20
747.9728545397
 10
721.5476581761
 20
747.9337001881
 10
722.5068234638
 20
748.2385914373
 10
723.3007863091
 20
748.8544885895
 10
723.8435085182
 20
749.7146496316
 10
724.0761777184
 20
750.7258627681
  0
LWPOLYLINE
  5
CE
330
1F
100
AcDbEntity
  8
0
  6
Continuous
 62
     7
370
    15
100
AcDbPolyline
 90
       20
 70
   128
 43
0.0
 10
772.5652132296
 20
606.7550164982
 10
772.4626161029
 20
607.807701095
 10
772.03587064
 20
608.787782442
 10
771.3312213333
 20
609.5890535178
 10
770.425027869
 20
610.1246841682
 10
769.41549037
 20
610.3366305012
 10
768.412007889
 20
610.2019248428
 10
767.5233233233
 20
609.7351646414
 10
766.8457394351
 20
608.9869306072
 10
766.4526829523
 20
608.038305508
 10
766.3867476439
 20
606.9920875926
 10
766.6550786235
 20
605.961650806
 10
767.228598066
 20
605.0586589628
 10
768.0451562407
 20
604.3809652407
 10
769.0162663991
 20
604.0020082698
 10
770.0366936873
 20
603.9628539182
 10
770.995858975
 20
604.2677451673
 10
771.7898218204
 20
604.8836423195
 10
772.3325440294
 20
605.7438033617
 10
772.5652132296
 20
606.7550164982
  0
LWPOLYLINE
  5
CF
330
1F
100
AcDbEntity
  8
0
  6
Continuous
 62
     7
370
    15
100
AcDbPolyline
 90
       20
 70
   128
 43
0.0
 10
715.4480381047
 20
613.8202433761
 10
715.345440978
 20
614.8729279729
 10
714.918695515
 20
615.8530093199
 10
714.2140462083
 20
616.6542803957
 10
713.307852744
 20
617.1899110461
 10
712.2983152451
 20
617.4018573791
 10
711.294832764
 20
617.2671517207
 10
710.4061481984
 20
616.8003915193
 10
709.7285643101
 20
616.0521574851
 10
709.3355078274
 20
615.1035323859
 10
709.2695725189
 20
614.0573144705
 10
709.5379034986
 20
613.0268776839
 10
710.1114229411
 20
612.1238858407
 10
710.9279811158
 20
611.4461921185
 10
711.8990912742
 20
611.0672351477
 10
712.9195185624
 20
611.0280807961
 10
713.8786838501
 20
611.3329720452
 10
714.6726466954
 20
611.9488691974
 10
715.2153689044
 20
612.8090302396
 10
715.4480381047
 20
613.8202433761
  0
LWPOLYLINE
  5
D0
330
1F
100
AcDbEntity
  8
0
  6
Continuous
 62
     7
370
    15
100
AcDbPolyline
 90
       20
 70
   128
 43
0.0
 10
786.4707975787
 20
827.3996425194
 10
786.3682004521
 20
828.4523271163
 10
785.9414549891
 20
829.4324084633
 10
785.2368056824
 20
830.2336795391
 10
784.3306122181
 20
830.7693101895
 10
783.3210747192
 20
830.9812565225
 10
782.3175922381
 20
830.8465508641
 10
781.4289076725
 20
830.3797906627
 10
780.7513237842
 20
829.6315566285
 10
780.3582673015
 20
828.6829315293
 10
780.292331993
 20
827.6367136139
 10
780.5606629727
 20
826.6062768273
 10
781.1341824152
 20
825.7032849841
 10
781.9507405898
 20
825.0255912619
 10
782.9218507483
 20
824.6466342911
 10
783.9422780365
 20
824.6074799395
 10
784.9014433242
 20
824.9123711886
 10
785.6954061695
 20
825.5282683408
 10
786.2381283785
 20
826.388429383
 10
786.4707975787
 20
827.3996425194
  0
LWPOLYLINE
  5
D1
330
1F
100
AcDbEntity
  8
0
  6
Continuous
 62
     7
370
    15
100
AcDbPolyline
 90
       20
 70
   128
 43
0.0
 10
729.3536224538
 20
834.4648693973
 10
729.2510253271
 20
835.5175539942
 10
728.8242798641
 20
836.4976353412
 10
728.1196305574
 20
837.298906417
 10
727.2134370932
 20
837.8345370674
 10
726.2038995942
 20
838.0464834004
 10
725.2004171132
 20
837.911777742
 10
724.3117325475
 20
837.4450175405
 10
723.6341486592
 20
836.6967835064
 10
723.2410921765
 20
835.7481584071
 10
723.1751568681
 20
834.7019404918
 10
723.4434878477
 20
833.6715037051
 10
724.0170072902
 20
832.768511862
 10
724.8335654649
 20
832.0908181398
 10
725.8046756233
 20
831.711861169
 10
726.8251029115
 20
831.6727068173
 10
727.7842681992
 20
831.9775980665
 10
728.5782310445
 20
832.5934952187
 10
729.1209532536
 20
833.4536562609
 10
729.3536224538
 20
834.4648693973
  0
LINE
  5
D2
330
1F
100
AcDbEntity
  8
0
  6
Continuous
 62
     7
370
    15
100
AcDbLine
 10
558.6428729457
 20
776.8359257754
 30
0.0
 11
559.5428101272
 21
777.3542486349
 31
0.0
  0
LINE
  5
D3
330
1F
100
AcDbEntity
  8
0
  6
Continuous
 62
     7
370
    15
100
AcDbLine
 10
565.0440749672
 20
864.6446848209
 30
0.0
 11
564.1441377856
 21
864.1263619614
 31
0.0
  0
LINE
  5
D4
330
1F
100
AcDbEntity
  8
0
  6
Continuous
 62
     7
370
    15
100
AcDbLine
 10
564.1441377856
 20
864.1263619614
 30
0.0
 11
558.6428729457
 21
776.8359257754
 31
0.0
  0
LINE
  5
D5
330
1F
100
AcDbEntity
  8
0
  6
Continuous
 62
     7
370
    15
100
AcDbLine
 10
691.9162815706
 20
760.3503963937
 30
0.0
 11
692.8162187521
 21
760.8687192532
 31
0.0
  0
LINE
  5
D6
330
1F
100
AcDbEntity
  8
0
  6
Continuous
 62
     7
370
    15
100
AcDbLine
 10
558.6428729457
 20
776.8359257754
 30
0.0
 11
691.9162815706
 21
760.3503963937
 31
0.0
  0
LINE
  5
D7
330
1F
100
AcDbEntity
  8
0
  6
Continuous
 62
     7
370
    15
100
AcDbLine
 10
709.5991511024
 20
584.2490740584
 30
0.0
 11
710.499088284
 21
584.7673969179
 31
0.0
  0
LINE
  5
D8
330
1F
100
AcDbEntity
  8
0
  6
Continuous
 62
     7
370
    15
100
AcDbLine
 10
682.8894506
 20
617.1186059385
 30
0.0
 11
683.7893877816
 21
617.636928798
 31
0.0
  0
LINE
  5
D9
330
1F
100
AcDbEntity
  8
0
  6
Continuous
 62
     7
370
    15
100
AcDbLine
 10
682.8894506
 20
617.1186059385
 30
0.0
 11
709.5991511024
 21
584.2490740584
 31
0.0
  0
ARC
  5
DA
330
1F
100
AcDbEntity
  8
0
  6
Continuous
 62
     7
370
    15
100
AcDbCircle
 10
584.6840030782
 20
791.8567943847
 30
0.0
 40
3.281790951039451
100
AcDbArc
 50
312.55855112
 51
107.321417904
  0
LINE
  5
DB
330
1F
100
AcDbEntity
  8
0
  6
Continuous
 62
     7
370
    15
100
AcDbLine
 10
691.9162815706
 20
760.3503963937
 30
0.0
 11
682.8894506
 21
617.1186059385
 31
0.0
  0
LINE
  5
DC
330
1F
100
AcDbEntity
  8
0
  6
Continuous
 62
     7
370
    15
100
AcDbLine
 10
766.7163262274
 20
577.1838471805
 30
0.0
 11
767.6162634089
 21
577.70217004
 31
0.0
  0
LINE
  5
DD
330
1F
100
AcDbEntity
  8
0
  6
Continuous
 62
     7
370
    15
100
AcDbLine
 10
709.5991511024
 20
584.2490740584
 30
0.0
 11
766.7163262274
 21
577.1838471805
 31
0.0
  0
ARC
  5
DE
330
1F
100
AcDbEntity
  8
0
  6
Continuous
 62
     7
370
    15
100
AcDbCircle
 10
566.3639192281
 20
864.6955576548
 30
0.0
 40
1.320824332846919
100
AcDbArc
 50
142.9010847536
 51
182.2073486654
  0
ARC
  5
DF
330
1F
100
AcDbEntity
  8
0
  6
Continuous
 62
     7
370
    15
100
AcDbCircle
 10
948.0295874318
 20
817.4314659917
 30
0.0
 40
2.20717353740854
100
AcDbArc
 50
160.6474932053
 51
177.0989886044
  0
ARC
  5
E0
330
1F
100
AcDbEntity
  8
0
  6
Continuous
 62
     7
370
    15
100
AcDbCircle
 10
570.8393998889
 20
864.3844279824
 30
0.0
 40
6.700233779675287
100
AcDbArc
 50
142.9010847536
 51
182.2073486654
  0
ARC
  5
E1
330
1F
100
AcDbEntity
  8
0
  6
Continuous
 62
     7
370
    15
100
AcDbCircle
 10
711.2829605807
 20
613.5859631282
 30
0.0
 40
3.281790951040185
100
AcDbArc
 50
312.5585511203
 51
107.3214179038
  0
ARC
  5
E2
330
1F
100
AcDbEntity
  8
0
  6
Continuous
 62
     7
370
    15
100
AcDbCircle
 10
587.888740649
 20
842.707453016
 30
0.0
 40
3.281790951039487
100
AcDbArc
 50
312.55855112
 51
107.321417904
  0
ARC
  5
E3
330
1F
100
AcDbEntity
  8
0
  6
Continuous
 62
     7
370
    15
100
AcDbCircle
 10
768.4001357056
 20
606.5207362503
 30
0.0
 40
3.281790951043424
100
AcDbArc
 50
312.5585511215
 51
107.3214179026
  0
ARC
  5
E4
330
1F
100
AcDbEntity
  8
0
  6
Continuous
 62
     7
370
    15
100
AcDbCircle
 10
692.8932518486
 20
778.4716279934
 30
0.0
 40
3.281790951039319
100
AcDbArc
 50
312.55855112
 51
107.321417904
  0
ARC
  5
E5
330
1F
100
AcDbEntity
  8
0
  6
Continuous
 62
     7
370
    15
100
AcDbCircle
 10
719.9111001944
 20
750.4915825202
 30
0.0
 40
3.281790951039405
100
AcDbArc
 50
312.55855112
 51
107.321417904
  0
ARC
  5
E6
330
1F
100
AcDbEntity
  8
0
  6
Continuous
 62
     7
370
    15
100
AcDbCircle
 10
696.0979894194
 20
829.3222866248
 30
0.0
 40
3.281790951039234
100
AcDbArc
 50
312.55855112
 51
107.3214179041
  0
ARC
  5
E7
330
1F
100
AcDbEntity
  8
0
  6
Continuous
 62
     7
370
    15
100
AcDbCircle
 10
777.0282753193
 20
743.4263556423
 30
0.0
 40
3.281790951039321
100
AcDbArc
 50
312.55855112
 51
107.3214179041
  0
ARC
  5
E8
330
1F
100
AcDbEntity
  8
0
  6
Continuous
 62
     7
370
    15
100
AcDbCircle
 10
725.1885449298
 20
834.2305891494
 30
0.0
 40
3.28179095103941
100
AcDbArc
 50
312.55855112
 51
107.321417904
  0
LINE
  5
E9
330
1F
100
AcDbEntity
  8
0
  6
Continuous
 62
     7
370
    15
100
AcDbLine
 10
939.4240404454
 20
729.7344132562
 30
0.0
 11
940.3239776269
 21
730.2527361157
 31
0.0
  0
LINE
  5
EA
330
1F
100
AcDbEntity
  8
0
  6
Continuous
 62
     7
370
    15
100
AcDbLine
 10
807.0111942905
 20
746.1134935869
 30
0.0
 11
939.4240404454
 21
729.7344132562
 31
0.0
  0
ARC
  5
EB
330
1F
100
AcDbEntity
  8
0
  6
Continuous
 62
     7
370
    15
100
AcDbCircle
 10
807.1276020985
 20
764.3411742377
 30
0.0
 40
3.281790951039326
100
AcDbArc
 50
312.55855112
 51
107.321417904
  0
ARC
  5
EC
330
1F
100
AcDbEntity
  8
0
  6
Continuous
 62
     7
370
    15
100
AcDbCircle
 10
782.3057200548
 20
827.1653622716
 30
0.0
 40
3.281790951039437
100
AcDbArc
 50
312.55855112
 51
107.321417904
  0
ARC
  5
ED
330
1F
100
AcDbEntity
  8
0
  6
Continuous
 62
     7
370
    15
100
AcDbCircle
 10
810.3323396694
 20
815.191832869
 30
0.0
 40
3.281790951039242
100
AcDbArc
 50
312.55855112
 51
107.321417904
  0
ARC
  5
EE
330
1F
100
AcDbEntity
  8
0
  6
Continuous
 62
     7
370
    15
100
AcDbCircle
 10
911.842423161
 20
751.3882582949
 30
0.0
 40
3.281790951038952
100
AcDbArc
 50
312.5585511199
 51
107.3214179041
  0
ARC
  5
EF
330
1F
100
AcDbEntity
  8
0
  6
Continuous
 62
     7
370
    15
100
AcDbCircle
 10
915.0471607318
 20
802.2389169262
 30
0.0
 40
3.281790951039184
100
AcDbArc
 50
312.55855112
 51
107.3214179041
  0
ENDSEC
  0
SECTION
  2
OBJECTS
  0
DICTIONARY
  5
C
330
0
100
AcDbDictionary
281
     1
  3
ACAD_GROUP
350
D
  3
ACAD_LAYOUT
350
1A
  3
ACAD_MLINESTYLE
350
17
  3
ACAD_PLOTSETTINGS
350
19
  3
ACAD_PLOTSTYLENAME
350
E
  0
DICTIONARY
  5
D
102
{ACAD_REACTORS
330
C
102
}
330
C
100
AcDbDictionary
281
     1
  0
DICTIONARY
  5
1A
102
{ACAD_REACTORS
330
C
102
}
330
C
100
AcDbDictionary
281
     1
  3
Layout1
350
1E
  3
Layout2
350
26
  3
Model
350
22
  0
DICTIONARY
  5
17
102
{ACAD_REACTORS
330
C
102
}
330
C
100
AcDbDictionary
281
     1
  3
Standard
350
18
  0
DICTIONARY
  5
19
102
{ACAD_REACTORS
330
C
102
}
330
C
100
AcDbDictionary
281
     1
  0
ACDBDICTIONARYWDFLT
  5
E
102
{ACAD_REACTORS
330
C
102
}
330
C
100
AcDbDictionary
281
     1
  3
Normal
350
F
100
AcDbDictionaryWithDefault
340
F
  0
LAYOUT
  5
1E
102
{ACAD_REACTORS
330
1A
102
}
330
1A
100
AcDbPlotSettings
  1

  2
none_device
  4

  6

 40
0.0
 41
0.0
 42
0.0
 43
0.0
 44
0.0
 45
0.0
 46
0.0
 47
0.0
 48
0.0
 49
0.0
140
0.0
141
0.0
142
1.0
143
1.0
 70
   688
 72
     0
 73
     0
 74
     5
  7

 75
    16
147
1.0
148
0.0
149
0.0
100
AcDbLayout
  1
Layout1
 70
     1
 71
     1
 10
0.0
 20
0.0
 11
420.0
 21
297.0
 12
0.0
 22
0.0
 32
0.0
 14
1.0000000000E+20
 24
1.0000000000E+20
 34
1.0000000000E+20
 15
-1.0000000000E+20
 25
-1.0000000000E+20
 35
-1.0000000000E+20
146
0.0
 13
0.0
 23
0.0
 33
0.0
 16
1.0
 26
0.0
 36
0.0
 17
0.0
 27
1.0
 37
0.0
 76
     0
330
1B
  0
LAYOUT
  5
26
102
{ACAD_REACTORS
330
1A
102
}
330
1A
100
AcDbPlotSettings
  1

  2
none_device
  4

  6

 40
0.0
 41
0.0
 42
0.0
 43
0.0
 44
0.0
 45
0.0
 46
0.0
 47
0.0
 48
0.0
 49
0.0
140
0.0
141
0.0
142
1.0
143
1.0
 70
   688
 72
     0
 73
     0
 74
     5
  7

 75
    16
147
1.0
148
0.0
149
0.0
100
AcDbLayout
  1
Layout2
 70
     1
 71
     2
 10
0.0
 20
0.0
 11
0.0
 21
0.0
 12
0.0
 22
0.0
 32
0.0
 14
0.0
 24
0.0
 34
0.0
 15
0.0
 25
0.0
 35
0.0
146
0.0
 13
0.0
 23
0.0
 33
0.0
 16
1.0
 26
0.0
 36
0.0
 17
0.0
 27
1.0
 37
0.0
 76
     0
330
23
  0
LAYOUT
  5
22
102
{ACAD_REACTORS
330
1A
102
}
330
1A
100
AcDbPlotSettings
  1

  2
none_device
  4

  6

 40
0.0
 41
0.0
 42
0.0
 43
0.0
 44
0.0
 45
0.0
 46
0.0
 47
0.0
 48
0.0
 49
0.0
140
0.0
141
0.0
142
1.0
143
1.0
 70
  1712
 72
     0
 73
     0
 74
     0
  7

 75
     0
147
1.0
148
0.0
149
0.0
100
AcDbLayout
  1
Model
 70
     1
 71
     0
 10
0.0
 20
0.0
 11
1000.0
 21
1000.0
 12
0.0
 22
0.0
 32
0.0
 14
0.0
 24
0.0
 34
0.0
 15
1000.0
 25
1000.0
 35
0.0
146
0.0
 13
0.0
 23
0.0
 33
0.0
 16
1.0
 26
0.0
 36
0.0
 17
0.0
 27
1.0
 37
0.0
 76
     0
330
1F
331
29
  0
MLINESTYLE
  5
18
102
{ACAD_REACTORS
330
17
102
}
330
17
100
AcDbMlineStyle
  2
Standard
 70
     0
  3

 62
   256
 51
90.0
 52
90.0
 71
     2
 49
0.5
 62
   256
  6
BYLAYER
 49
-0.5
 62
   256
  6
BYLAYER
  0
ACDBPLACEHOLDER
  5
F
102
{ACAD_REACTORS
330
E
102
}
330
E
  0
ENDSEC
  0
EOF
